ドライブレコーダーによる危険運転・事故動画

Youtube上にある自動車の危険極まりない運転や事故の動画を掲載していきます。面白半分ではなく注意喚起として参考にしてくだされば幸いです。

ドライブレコーダー 未分類

VANTRUE X1 PRO 1440p ドラレコ ドライブレコーダー 山口県宇部市新天町 国道190号線 20190216 182906

投稿日:

夜間走行映像です。1440pの設定です。
この商品は1440pで高画質で録画できます。
しかし、全体が青色がかっています。

General
Complete name : 20190216_182906_VANTRUE X1 PRO 1440p ドラレコ ドライブレコーダー 山口県宇部市新天町 国道190号線.mp4
Format : MPEG-4
Format profile : Base Media / Version 2
Codec ID : mp42 (isom/avc1/mp42)
File size : 736 MiB
Duration : 5 min 1 s
Overall bit rate mode : Variable
Overall bit rate : 20.5 Mb/s
Movie_More : NT9666XA
Encoded date : UTC 2019-02-16 18:34:05
Tagged date : UTC 2019-02-16 18:34:05
Origin : NT9666XA

Video
ID : 1
Format : AVC
Format/Info : Advanced Video Codec
Format profile : High@L5.1
Format settings, CABAC : Yes
Format settings, ReFrames : 1 frame
Format settings, GOP : M=1, N=15
Codec ID : avc1
Codec ID/Info : Advanced Video Coding
Duration : 5 min 1 s
Bit rate : 20.1 Mb/s
Width : 2 560 pixels
Height : 1 440 pixels
Display aspect ratio : 16:9
Frame rate mode : Constant
Frame rate : 30.000 FPS
Color space : YUV
Chroma subsampling : 4:2:0
Bit depth : 8 bits
Scan type : Progressive
Bits/(Pixel*Frame) : 0.181
Stream size : 720 MiB (98%)
Language : English
Encoded date : UTC 2019-02-16 18:34:05
Tagged date : UTC 2019-02-16 18:34:05

Audio
ID : 2
Format : AAC
Format/Info : Advanced Audio Codec
Format profile : LC
Codec ID : 40
Duration : 5 min 0 s
Bit rate mode : Variable
Bit rate : 96.0 kb/s
Channel(s) : 1 channel
Channel positions : Front: C
Sampling rate : 32.0 kHz
Frame rate : 31.250 FPS (1024 spf)
Compression mode : Lossy
Stream size : 3.44 MiB (0%)
Language : English
Encoded date : UTC 2019-02-16 18:34:05
Tagged date : UTC 2019-02-16 18:34:05

20190216_182906_VANTRUE X1 PRO ドラレコ ドライブレコーダー 山口県宇部市新天町 国道190号線

スポンサーリンク




スポンサーリンク




-ドライブレコーダー, 未分類

執筆者:


comment

メールアドレスが公開されることはありません。 * が付いている欄は必須項目です

関連記事

【ドライブレコーダー】 2019 日本 交通事故・トラブル 16

【ドラレコ動画】やすらぎの丘 須崎斎場への道(高知県須崎市)

2018年7月にドラレコで録画したものです。画質が低いため、見づらいとは思いますが、経路確認のお役に立てればと思います。  なお、車のウィンカー音がうるさいのと、カーナビの音声案内が分かりにくいなどで …

【悪質な煽り運転・危険ドラレコ動画】スズキ車乗りにされた超急接近

【ドラレコ】福岡市 早良区 百道 老害暴走死亡事故

拾い動画。 「早良署によると、交差点の手前で80代の男性が運転する乗用車1台が接触事故を起こし、そのまま交差点に進入して、さらに他の車と衝突したとみられる。死亡したのはこの男性と同乗の70代女性という …

ドライブレコーダー 小田急バス・神奈中バス・富士急バス・覆面パトカー・その他

小田急バス車体記号 A・アルファー 吉祥寺営業所 B・ペーター  若林営業所(現小田急シティバス)OCB C・チャーリー 武蔵境営業所 D・ドリーム  狛江営業所 E・イーグル  登戸営業所、生田営業 …

%d人のブロガーが「いいね」をつけました。